Download – Vivegam (2017) 720p 10bit HEVC x265 WebRip

720p 869MB 10bit x265 HEVC Direct Link

Sample Download

Encoder: WHERE’S THE BEEF!

Media Info

Video
ID : 1
Format : HEVC
Format/Info : High Efficiency Video Coding
Format profile : Main [email protected]@Main
Codec ID : V_MPEGH/ISO/HEVC
Duration : 2 h 27 min
Bit rate : 700 kb/s
Width : 1 280 pixels
Height : 560 pixels
Display aspect ratio : 2.25:1
Frame rate mode : Constant
Frame rate : 24.000 FPS
Color space : YUV
Chroma subsampling : 4:2:0
Bit depth : 10 bits
Bits/(Pixel*Frame) : 0.041
Stream size : 741 MiB (85%)

Audio
ID : 2
Format : AAC
Format/Info : Advanced Audio Codec
Format profile : HE-AAC / LC
Codec ID : A_AAC
Duration : 2 h 27 min
Bit rate : 120 kb/s
Channel(s) : 6 channels
Channel positions : Front: L C R, Side: L R, LFE
Sampling rate : 48.0 kHz / 24.0 kHz
Frame rate : 23.438 FPS (1024 SPF)
Compression mode : Lossy
Delay relative to video : 43 ms
Stream size : 127 MiB (15%)
Language : Tamil
Default : Yes
Forced : No

 

[collapse]

4 Responses to Download – Vivegam (2017) 720p 10bit HEVC x265 WebRip

  1. Prakash says:

    Dear Gangsternerd,
    Please please upload the movie”Skinless”(2013) in 720p hevc as soon as possible.I am eagerly waiting for your response.
    Its IMDB link is-
    http://www.imdb.com/title/tt3290872/

    Thanks.

  2. Bala says:

    Ji Thanks a lot for uploading…..

  3. chdx says:

    hi uploader, thanks for uploading this beautiful movies.
    ‘Media info’ says audio is english; I hope not
    Pls what language is this movie’s audio? Hindi, Telugu, Tamil??

    thanks for ur quick response

  4. chdx says:

    never mind, sample video answers my questions

Leave a Reply

Your email address will not be published. Required fields are marked *