Download – United 93 (2006) 720p 10bit HEVC x265 BluRay

720p 849MB 10bit x265 HEVC Direct Link

Sample Download

Encoder: Gangsternerd

Old Encode and was Borderline of
redoing but since will only gain like 150MB
not worth the time to redo .. sorry 300MB People

Media Info

Video
ID : 1
Format : HEVC
Format/Info : High Efficiency Video Coding
Format profile : Main [email protected]@Main
Codec ID : V_MPEGH/ISO/HEVC
Duration : 1 h 50 min
Bit rate : 950 kb/s
Width : 1 280 pixels
Height : 720 pixels
Display aspect ratio : 16:9
Frame rate mode : Constant
Frame rate : 23.976 (24000/1001) FPS
Color space : YUV
Chroma subsampling : 4:2:0
Bit depth : 10 bits
Bits/(Pixel*Frame) : 0.043
Stream size : 753 MiB (89%)

Audio
ID : 2
Format : AAC
Format/Info : Advanced Audio Codec
Format profile : HE-AAC / LC
Codec ID : A_AAC
Duration : 1 h 50 min
Bit rate : 120 kb/s
Channel(s) : 6 channels
Channel positions : Front: L C R, Side: L R, LFE
Sampling rate : 48.0 kHz / 24.0 kHz
Frame rate : 23.438 FPS (1024 SPF)
Compression mode : Lossy
Delay relative to video : 43 ms
Stream size : 95.1 MiB (11%)
Language : English
Default : Yes
Forced : No

[collapse]

6 Responses to Download – United 93 (2006) 720p 10bit HEVC x265 BluRay

  1. x265 Fan says:

    Pls Upload HERCULES (1997) links are expired..
    Sleeping Beauty (1959)
    Aladdin (1992)

  2. eyecheez says:

    very funny movie enjoyed

  3. asitha says:

    Oggy and the Cockroaches: The Movie (2013)
    movie Plzzz

Leave a Reply

Your email address will not be published. Required fields are marked *