Download – Thunderball (1965) HQ 720p 10bit HEVC x265 BluRay

720p 1GB 10bit x265 HEVC Direct Link

Sample Download

Encoder: Gangsternerd

Media Info

Video
ID : 1
Format : HEVC
Format/Info : High Efficiency Video Coding
Format profile : Main [email protected]@Main
Codec ID : V_MPEGH/ISO/HEVC
Duration : 2 h 10 min
Bit rate : 999 kb/s
Width : 1 280 pixels
Height : 544 pixels
Display aspect ratio : 2.35:1
Frame rate mode : Constant
Frame rate : 23.976 (24000/1001) FPS
Color space : YUV
Chroma subsampling : 4:2:0
Bit depth : 10 bits
Bits/(Pixel*Frame) : 0.060
Stream size : 932 MiB (91%)

Audio
ID : 2
Format : AAC
Format/Info : Advanced Audio Codec
Format profile : HE-AACv2 / HE-AAC / LC
Codec ID : A_AAC
Duration : 2 h 10 min
Bit rate : 96.0 kb/s
Channel(s) : 6 channels
Channel(s)_Original : 2 channels / 18 channels / 18 channels
Channel positions : Front: L R / Front: 6, Side: C, Back: 9, LFE= 2 / Front: 6, Side: C, Back: 9, LFE= 2
Sampling rate : 48.0 kHz / 48.0 kHz / 24.0 kHz
Frame rate : 23.438 FPS (1024 SPF)
Compression mode : Lossy
Delay relative to video : 43 ms
Stream size : 89.5 MiB (9%)
Language : English
Default : Yes
Forced : No

[collapse]

3 Responses to Download – Thunderball (1965) HQ 720p 10bit HEVC x265 BluRay

  1. Kraven says:

    It’s very disappointing that the links to the Bond movies no longer work =(
    Can you please re-upload?

  2. Kraven says:

    No kidding. Deeply appreciate the fantastic job, buddy. Hope you can re-up the links at some point.

Leave a Reply

Your email address will not be published. Required fields are marked *