Download – The Toxic Avenger (1984) 720p 10bit HEVC x265 BluRay

720p 545MB 10bit x265 HEVC Direct Link

Sample Download

Encoder: Gangsternerd

Media Info

Video
ID : 1
Format : HEVC
Format/Info : High Efficiency Video Coding
Format profile : Main [email protected]@Main
Codec ID : V_MPEGH/ISO/HEVC
Duration : 1 h 22 min
Bit rate : 829 kb/s
Width : 962 pixels
Height : 520 pixels
Display aspect ratio : 16:9
Original display aspect rat : 16:9
Frame rate mode : Constant
Frame rate : 23.976 (24000/1001) FPS
Color space : YUV
Chroma subsampling : 4:2:0
Bit depth : 10 bits
Bits/(Pixel*Frame) : 0.069
Stream size : 488 MiB (89%)

Audio
ID : 2
Format : AAC
Format/Info : Advanced Audio Codec
Format profile : HE-AAC / LC
Codec ID : A_AAC
Duration : 1 h 22 min
Bit rate : 96.0 kb/s
Channel(s) : 6 channels
Channel(s)_Original : 19 channels
Channel positions : Front: 14, Side: L R, Back: C, LFE= 2
Sampling rate : 48.0 kHz / 24.0 kHz
Frame rate : 23.438 FPS (1024 SPF)
Compression mode : Lossy
Delay relative to video : 43 ms
Stream size : 56.5 MiB (10%)
Language : English
Default : Yes
Forced : No

[collapse]

One Response to Download – The Toxic Avenger (1984) 720p 10bit HEVC x265 BluRay

  1. Rony says:

    Plz reupload mate !

Leave a Reply

Your email address will not be published. Required fields are marked *