Download – The Strangers (2008) 720p 10bit HEVC x265 BluRay *My Smallest Encode*

720p 265MB 10bit x265 HEVC Direct Link

Sample Download

Encoder: Gangsternerd

🙂 Don’t Judge the Size on this one!
This Encode turned really really Good!

Media Info

Video
ID : 1
Format : HEVC
Format/Info : High Efficiency Video Coding
Format profile : Main [email protected]@Main
Codec ID : V_MPEGH/ISO/HEVC
Duration : 1 h 27 min
Bit rate : 321 kb/s
Width : 1 120 pixels
Height : 480 pixels
Display aspect ratio : 2.35:1
Frame rate mode : Constant
Frame rate : 23.976 (24000/1001) FPS
Color space : YUV
Chroma subsampling : 4:2:0
Bit depth : 10 bits
Bits/(Pixel*Frame) : 0.025
Stream size : 202 MiB (76%)

Audio
ID : 2
Format : AAC
Format/Info : Advanced Audio Codec
Format profile : HE-AAC / LC
Codec ID : A_AAC
Duration : 1 h 27 min
Bit rate : 100 kb/s
Channel(s) : 6 channels
Channel positions : Front: L C R, Side: L R, LFE
Sampling rate : 48.0 kHz / 24.0 kHz
Frame rate : 23.438 FPS (1024 SPF)
Compression mode : Lossy
Delay relative to video : 43 ms
Stream size : 62.9 MiB (24%)
Language : English
Default : Yes
Forced : No

[collapse]

6 Responses to Download – The Strangers (2008) 720p 10bit HEVC x265 BluRay *My Smallest Encode*

  1. CKay says:

    WoW! Another great encode.
    Your smallest encode = Smallest movie I have ever downloaded 🙂
    2nd Smallest one is also from here. 360mb Wazir (2016) done by DK. That was great too. 🙂 Hope this shows the quality of the encodes in this site 😀

  2. Shashanka says:

    Awesome rip mate..!!! Awesome movie too..Bring on more such rips…

  3. Bala says:

    Thanks, do more movies in this size.

  4. skywalker says:

    please upload Justice League Dark (2017) with this size, thanks

    • Gangsternerd says:

      you need to pretty much forget that this size happened! i have many other movies at this size that didn’t work! the issue is most dont work! but i checked this one and it did. the thing is with most not able to go this low of bitrate its not worth the time to keep trying this low! the movie is very dark so this is one reason it was able to be so small the other is not very long of a movie. so please don’t expect this it was a freakish thing.

  5. fk989 says:

    Thanks G
    With Small Size Comes Great Responsibility

Leave a Reply

Your email address will not be published. Required fields are marked *