Download – The Spy Next Door (2010) 720p 10bit HEVC x265 BluRay

720p 576MB 10bit x265 HEVC Direct Link

Sample Download

Encoder: Gangsternerd

Media Info

Video
ID : 1
Format : HEVC
Format/Info : High Efficiency Video Coding
Format profile : Main [email protected]@Main
Codec ID : V_MPEGH/ISO/HEVC
Duration : 1 h 34 min
Bit rate : 753 kb/s
Width : 1 280 pixels
Height : 720 pixels
Display aspect ratio : 16:9
Frame rate mode : Constant
Frame rate : 23.976 (24000/1001) FPS
Color space : YUV
Chroma subsampling : 4:2:0
Bit depth : 10 bits
Bits/(Pixel*Frame) : 0.034
Stream size : 508 MiB (88%)

Audio
ID : 2
Format : AAC
Format/Info : Advanced Audio Codec
Format profile : HE-AAC / LC
Codec ID : A_AAC
Duration : 1 h 34 min
Bit rate : 100.0 kb/s
Channel(s) : 6 channels
Channel positions : Front: L C R, Side: L R, LFE
Sampling rate : 48.0 kHz / 24.0 kHz
Frame rate : 23.438 FPS (1024 SPF)
Compression mode : Lossy
Delay relative to video : 43 ms
Stream size : 67.5 MiB (12%)
Language : English
Default : Yes
Forced : No

[collapse]

One Response to Download – The Spy Next Door (2010) 720p 10bit HEVC x265 BluRay

  1. asitha says:

    pls upload other jacki chan fils too…

    The Tuxedo 2002
    The Myth (2005)
    The Karate Kid (2010)
    Shanghai Knights (2003)
    Shanghai.Noon 2000
    Rob-B-Hood 2006

Leave a Reply

Your email address will not be published. Required fields are marked *