Download – The Incredibles (2004) 720p 10bit HEVC x265 BluRay

720p 615MB 10bit x265 HEVC Direct Link

Sample Download

Encoder: Gangsternerd

Media Info

 

Video
ID : 1
Format : HEVC
Format/Info : High Efficiency Video Coding
Format profile : Main [email protected]@Main
Codec ID : V_MPEGH/ISO/HEVC
Duration : 1 h 55 min
Bit rate : 623 kb/s
Width : 1 280 pixels
Height : 544 pixels
Display aspect ratio : 2.35:1
Frame rate mode : Constant
Frame rate : 23.976 (24000/1001) FPS
Color space : YUV
Chroma subsampling : 4:2:0
Bit depth : 10 bits
Bits/(Pixel*Frame) : 0.037
Stream size : 514 MiB (84%)

Audio
ID : 2
Format : AAC
Format/Info : Advanced Audio Codec
Format profile : HE-AAC / LC
Codec ID : A_AAC
Duration : 1 h 55 min
Bit rate : 120 kb/s
Channel(s) : 6 channels
Channel positions : Front: L C R, Side: L R, LFE
Sampling rate : 48.0 kHz / 24.0 kHz
Frame rate : 23.438 FPS (1024 SPF)
Compression mode : Lossy
Delay relative to video : 43 ms
Stream size : 99.1 MiB (16%)
Language : English
Default : Yes
Forced : No

[collapse]

2 Responses to Download – The Incredibles (2004) 720p 10bit HEVC x265 BluRay

  1. elprince says:

    Please upload Kaena.The.Prophecy.2003

  2. Zippy says:

    The links point to the wrong movie!

Leave a Reply

Your email address will not be published. Required fields are marked *