Download – Stronger (2017) 720p 10bit HEVC x265 Web-DL

720p 736MB 10bit x265 HEVC Direct Link

Sample Download

Encoder: Gangsternerd

Media Info

Video
ID : 1
Format : HEVC
Format/Info : High Efficiency Video Coding
Format profile : Main [email protected]@Main
Codec ID : V_MPEGH/ISO/HEVC
Duration : 1 h 58 min
Bit rate : 744 kb/s
Width : 1 280 pixels
Height : 528 pixels
Display aspect ratio : 2.40:1
Frame rate mode : Constant
Frame rate : 23.976 (24000/1001) FPS
Color space : YUV
Chroma subsampling : 4:2:0
Bit depth : 10 bits
Bits/(Pixel*Frame) : 0.046
Stream size : 632 MiB (86%)

Audio
ID : 2
Format : AAC
Format/Info : Advanced Audio Codec
Format profile : HE-AAC / LC
Codec ID : A_AAC
Duration : 1 h 58 min
Bit rate : 120 kb/s
Channel(s) : 6 channels
Channel positions : Front: L C R, Side: L R, LFE
Sampling rate : 48.0 kHz / 24.0 kHz
Frame rate : 23.438 FPS (1024 SPF)
Compression mode : Lossy
Delay relative to video : 43 ms
Stream size : 102 MiB (14%)
Language : English
Default : Yes
Forced : No

[collapse]

5 Responses to Download – Stronger (2017) 720p 10bit HEVC x265 Web-DL

  1. Fayis says:

    Dunkirk with hq……..plssss

  2. Fayis says:

    Team x265mkv forgot….. Mostly showing page not found or currently not available,,,, those time what should do……. Or only problem my side or not I don’t know…

Leave a Reply

Your email address will not be published. Required fields are marked *