Download – Raees (2017) 720p 10bit WEBRIP x265 HEVC 500MB

imdb_37x187.3/10 Votes

x265

720p 500MB 10bit WEBRIP x265 HEVC Direct Link

Language :- Hindi

Subtitles :- N/A

Source :- 1080p HDLight WebRip x264 AAC 5.1 -DDR [3.16GB]

Sample Download

Runtime: 2h 21 min

Encoder: GunneR

8 Responses to Download – Raees (2017) 720p 10bit WEBRIP x265 HEVC 500MB

  1. GunneR says:

    Bro its not 327kbps. I think software for use to cut samples is showing wrong.

    Complete name : C:\Users\GunneR\Downloads\Video\[x265mkv.com].Raees.(2017).720p.10bit. WEBRIP.x265.HEVC.mkv
    Format : Matroska
    Format version : Version 4 / Version 2
    File size : 514 MiB
    Duration : 2 h 21 min
    Overall bit rate : 509 kb/s
    Encoded date : UTC 2017-04-06 04:12:04
    Writing application : mkvmerge v9.9.0 (‘Pick Up’) 64bit
    Writing library : libebml v1.3.4 + libmatroska v1.4.5

    Video
    ID : 1
    Format : HEVC
    Format/Info : High Efficiency Video Coding
    Format profile : Main [email protected]@Main
    Codec ID : V_MPEGH/ISO/HEVC
    Duration : 2 h 21 min
    Bit rate : 443 kb/s
    Width : 1 280 pixels
    Height : 534 pixels
    Display aspect ratio : 2.40:1
    Original display aspect rat : 2.40:1
    Frame rate mode : Constant
    Frame rate : 24.000 FPS
    Color space : YUV
    Chroma subsampling : 4:2:0
    Bit depth : 10 bits
    Bits/(Pixel*Frame) : 0.027
    Stream size : 448 MiB (87%)
    Writing library : x265 2.3+17-6e348252e902:[Windows][GCC 6.3.0][64 bit] 10bit
    Encoding settings : cpuid=1050111 / frame-threads=6 / numa-pools=16,16 / wpp / no-pmode / no-pme / no-psnr / no-ssim / log-level=2 / input-csp=1 / input-res=1280×534 / interlace=0 / total-frames=0 / level-idc=0 / high-tier=1 / uhd-bd=0 / ref=1 / no-allow-non-conformance / no-repeat-headers / annexb / no-aud / no-hrd / info / hash=0 / no-temporal-layers / open-gop / min-keyint=24 / keyint=250 / bframes=3 / b-adapt=0 / b-pyramid / bframe-bias=0 / rc-lookahead=10 / lookahead-slices=0 / scenecut=40 / no-intra-refresh / ctu=32 / min-cu-size=8 / no-rect / no-amp / max-tu-size=32 / tu-inter-depth=1 / tu-intra-depth=1 / limit-tu=0 / rdoq-level=0 / dynamic-rd=0.00 / signhide / no-tskip / nr-intra=0 / nr-inter=0 / no-constrained-intra / strong-intra-smoothing / max-merge=2 / limit-refs=0 / no-limit-modes / me=1 / subme=1 / merange=57 / temporal-mvp / no-weightp / no-weightb / no-analyze-src-pics / deblock=0:0 / no-sao / no-sao-non-deblock / rd=2 / early-skip / rskip / fast-intra / no-tskip-fast / no-cu-lossless / no-b-intra / rdpenalty=0 / psy-rd=0.00 / psy-rdoq=0.00 / no-rd-refine / analysis-mode=0 / no-lossless / cbqpoffs=0 / crqpoffs=0 / rc=abr / bitrate=442 / qcomp=0.60 / qpstep=4 / stats-write=0 / stats-read=2 / cplxblur=20.0 / qblur=0.5 / ipratio=1.40 / pbratio=1.30 / aq-mode=1 / aq-strength=0.00 / cutree / zone-count=0 / no-strict-cbr / qg-size=32 / no-rc-grain / qpmax=69 / qpmin=0 / sar=255 / sar-width / : / sar-height=801:800 / overscan=0 / videoformat=5 / range=0 / colorprim=2 / transfer=2 / colormatrix=1 / chromaloc=0 / display-window=0 / max-cll=0,0 / min-luma=0 / max-luma=1023 / log2-max-poc-lsb=8 / vui-timing-info / vui-hrd-info / slices=1 / opt-qp-pps / opt-ref-list-length-pps / no-multi-pass-opt-rps / scenecut-bias=0.05 / no-opt-cu-delta-qp / no-aq-motion / no-hdr / no-hdr-optrefine-level=5
    Language : Hindi
    Default : Yes
    Forced : Yes
    Color range : Limited
    Matrix coefficients : BT.709

    Audio
    ID : 2
    Format : AAC
    Format/Info : Advanced Audio Codec
    Format profile : HE-AAC / LC
    Codec ID : A_AAC
    Duration : 2 h 21 min
    Bit rate : 64.0 kb/s
    Channel(s) : 2 channels
    Channel positions : Front: L R
    Sampling rate : 48.0 kHz / 24.0 kHz
    Frame rate : 23.438 FPS (1024 spf)
    Compression mode : Lossy
    Delay relative to video : 31 ms
    Stream size : 64.7 MiB (13%)
    Language : Hindi
    Default : Yes
    Forced : No

    • Nishad says:

      your rips are good. but I have some suggestions. please use aq-mode=2 and aq-strength=1. you will get better quality and can avoid pixels in fast motion in small bit rate.

  2. GunneR says:

    Don`t look samples bitrate again. its showing wrong but sample is cut from the original video file.

  3. slaker says:

    dangle nadda macho thama ?

  4. GunneR says:

    Not yet Released Bro…!

  5. Suresh says:

    Mcho mekata wada oka quality da?

    Raees (2017) Hindi – 720p HDRiP – x265 HEVC – 850MB – ShAaNiG

  6. Muza says:

    please upload dangal tq

Leave a Reply

Your email address will not be published. Required fields are marked *