Download – Gone with the Wind (1939) WIDESCREEN 720p 10bit HEVC x265 BluRay

720p 1.66GB 10bit x265 HEVC Direct Link

Sample Download

Encoder: Gangsternerd

Custom Widescreen but was NOT done the same way
the movie Studio had done it in the past with a full Crop!
Its a 2 Step process, a small crop to get 16:10 aspect ratio and
a small Stretch to get the 16:9 Full Widescreen,With the 2 being small and not just
one or the other it feels like a true Widescreen. Check Sample and Enjoy! 🙂

Media Info

Video
ID : 1
Format : HEVC
Format/Info : High Efficiency Video Coding
Format profile : Main [email protected]@High
Codec ID : V_MPEGH/ISO/HEVC
Duration : 3 h 50 min
Bit rate : 936 kb/s
Width : 1 280 pixels
Height : 720 pixels
Display aspect ratio : 16:9
Frame rate mode : Constant
Frame rate : 23.976 FPS
Color space : YUV
Chroma subsampling : 4:2:0
Bit depth : 10 bits
Bits/(Pixel*Frame) : 0.042
Stream size : 1.51 GiB (91%)

Audio
ID : 2
Format : AAC
Format/Info : Advanced Audio Codec
Format profile : HE-AAC / LC
Codec ID : A_AAC
Duration : 3 h 50 min
Bit rate : 96.0 kb/s
Channel(s) : 6 channels
Channel positions : Front: L C R, Side: L R, LFE
Sampling rate : 48.0 kHz / 24.0 kHz
Frame rate : 23.438 FPS (1024 SPF)
Compression mode : Lossy
Delay relative to video : 43 ms
Stream size : 158 MiB (9%)
Language : English
Default : Yes
Forced : No

[collapse]

One Response to Download – Gone with the Wind (1939) WIDESCREEN 720p 10bit HEVC x265 BluRay

  1. Sandeep Kumar says:

    You are more than awesome. Please release all the classics and IMDB top 250s movies.

Leave a Reply

Your email address will not be published. Required fields are marked *