Download – Goldfinger (1964) HQ WIDESCREEN 720p 10bit HEVC x265 BluRay

720p 887MB 10bit x265 HEVC Direct Link

Sample Download

Encoder: Gangsternerd

Custom Widescreen with a very tiny crop and stretch
where you would never know! Very Happy
how it turned out. Check sample if have doubts.

Media Info

Video
ID : 1
Format : HEVC
Format/Info : High Efficiency Video Coding
Format profile : Main [email protected]@Main
Codec ID : V_MPEGH/ISO/HEVC
Duration : 1 h 50 min
Bit rate : 1 029 kb/s
Width : 1 280 pixels
Height : 720 pixels
Display aspect ratio : 16:9
Frame rate mode : Constant
Frame rate : 23.976 (24000/1001) FPS
Color space : YUV
Chroma subsampling : 4:2:0
Bit depth : 10 bits
Bits/(Pixel*Frame) : 0.047
Stream size : 810 MiB (91%)

Audio
ID : 2
Format : AAC
Format/Info : Advanced Audio Codec
Format profile : HE-AACv2 / HE-AAC / LC
Codec ID : A_AAC
Duration : 1 h 50 min
Bit rate : 96.0 kb/s
Channel(s) : 2 channels / 6 channels / 6 channels
Channel positions : Front: L R / Front: L C R, Side: L R, LFE / Front: L C R, Side: L R, LFE
Sampling rate : 48.0 kHz / 48.0 kHz / 24.0 kHz
Frame rate : 23.438 FPS (1024 SPF)
Compression mode : Lossy
Delay relative to video : 43 ms
Stream size : 75.5 MiB (9%)
Language : English
Default : Yes
Forced : No

[collapse]

Leave a Reply

Your email address will not be published. Required fields are marked *