Download – Dunkirk (2017) 720p 10bit HEVC x265 BluRay + HQ

Dunkirk (2017)

720p 700MB 10bit x265 HEVC Direct Link

Sample Download

 

Dunkirk (2017) High Quality

HQ 720p 924MB 10bit x265 HEVC Direct Link

Sample Download

Encoder: Gangsternerd

Dunkirk (2017) 720p Media Info

Video
ID : 1
Format : HEVC
Format/Info : High Efficiency Video Coding
Format profile : Main [email protected]@Main
Codec ID : V_MPEGH/ISO/HEVC
Duration : 1 h 46 min
Bit rate : 788 kb/s
Width : 1 280 pixels
Height : 720 pixels
Display aspect ratio : 16:9
Frame rate mode : Constant
Frame rate : 23.976 (24000/1001) FPS
Color space : YUV
Chroma subsampling : 4:2:0
Bit depth : 10 bits
Bits/(Pixel*Frame) : 0.036
Stream size : 601 MiB (86%)

Audio
ID : 2
Format : AAC
Format/Info : Advanced Audio Codec
Format profile : HE-AAC / LC
Codec ID : A_AAC
Duration : 1 h 46 min
Bit rate : 128 kb/s
Channel(s) : 6 channels
Channel positions : Front: L C R, Side: L R, LFE
Sampling rate : 48.0 kHz / 24.0 kHz
Frame rate : 23.438 FPS (1024 SPF)
Compression mode : Lossy
Delay relative to video : 40 ms
Stream size : 97.6 MiB (14%)
Language : English
Default : Yes
Forced : No

[collapse]

Dunkirk (2017) HQ 720p Media Info

Video
ID : 1
Format : HEVC
Format/Info : High Efficiency Video Coding
Format profile : Main [email protected]@Main
Codec ID : V_MPEGH/ISO/HEVC
Duration : 1 h 46 min
Bit rate : 1 082 kb/s
Width : 1 280 pixels
Height : 720 pixels
Display aspect ratio : 16:9
Frame rate mode : Constant
Frame rate : 23.976 (24000/1001) FPS
Color space : YUV
Chroma subsampling : 4:2:0
Bit depth : 10 bits
Bits/(Pixel*Frame) : 0.049
Stream size : 825 MiB (89%)

Audio
ID : 2
Format : AAC
Format/Info : Advanced Audio Codec
Format profile : HE-AAC / LC
Codec ID : A_AAC
Duration : 1 h 46 min
Bit rate : 128 kb/s
Channel(s) : 6 channels
Channel positions : Front: L C R, Side: L R, LFE
Sampling rate : 48.0 kHz / 24.0 kHz
Frame rate : 23.438 FPS (1024 SPF)
Compression mode : Lossy
Delay relative to video : 40 ms
Stream size : 97.6 MiB (11%)
Language : English
Default : Yes
Forced : No

[collapse]

 

9 Responses to Download – Dunkirk (2017) 720p 10bit HEVC x265 BluRay + HQ

  1. fayis says:

    Any chances hq……?

  2. fayis says:

    Thank u smch………… Man

Leave a Reply

Your email address will not be published. Required fields are marked *