Download – Deadpool (2016) 720p 10bit x265 BluRay + Unreleased Extended Cut!

Deadpool (2016)

720p 643MB 10bit x265 HEVC Direct Link

Sample Download

Deadpool (2016) Extended Cut

720p 836MB 10bit x265 HEVC Direct Link

Sample Download

Encoder: Gangsternerd

Original Cut time 1 Hour 48 Minutes
Extended Cut Time  1 Hour 55 Minutes

The Extended Cut is AS IS! There is no subs and you won’t find any
The Quality is Decent i’d give it about a B+! It is all the
Deleted Scenes Edited Back in! I found and thought
some People would be interested In this. but please
remember that it’s AS IS! I added for the hardcore!

Extended Cut has higher Bitrate cause it needed
all the help it could get! 🙂

Deadpool (2016) Media Info

Video
ID : 1
Format : HEVC
Format/Info : High Efficiency Video Coding
Format profile : Main [email protected]@Main
Codec ID : V_MPEGH/ISO/HEVC
Duration : 1 h 48 min
Bit rate : 734 kb/s
Width : 1 280 pixels
Height : 544 pixels
Display aspect ratio : 2.35:1
Frame rate mode : Constant
Frame rate : 23.976 (24000/1001) FPS
Color space : YUV
Chroma subsampling : 4:2:0
Bit depth : 10 bits
Bits/(Pixel*Frame) : 0.044
Stream size : 567 MiB (88%)

Audio
ID : 2
Format : AAC
Format/Info : Advanced Audio Codec
Format profile : HE-AAC / LC
Codec ID : A_AAC
Duration : 1 h 48 min
Bit rate : 96.0 kb/s
Channel(s) : 6 channels
Channel positions : Front: L C R, Side: L R, LFE
Sampling rate : 48.0 kHz / 24.0 kHz
Frame rate : 23.438 FPS (1024 SPF)
Compression mode : Lossy
Delay relative to video : 43 ms
Stream size : 74.2 MiB (12%)
Language : English
Default : Yes
Forced : No

[collapse]
Deadpool (2016) Extended Cut Media Info

Video
ID : 1
Format : HEVC
Format/Info : High Efficiency Video Coding
Format profile : Main [email protected]@Main
Codec ID : V_MPEGH/ISO/HEVC
Duration : 1 h 55 min
Bit rate : 912 kb/s
Width : 1 280 pixels
Height : 720 pixels
Display aspect ratio : 16:9
Frame rate mode : Constant
Frame rate : 29.970 (29970/1000) FPS
Color space : YUV
Chroma subsampling : 4:2:0
Bit depth : 10 bits
Bits/(Pixel*Frame) : 0.033
Stream size : 755 MiB (90%)

Audio
ID : 2
Format : AAC
Format/Info : Advanced Audio Codec
Format profile : HE-AAC / LC
Codec ID : A_AAC
Duration : 1 h 55 min
Bit rate : 96.0 kb/s
Channel(s) : 6 channels
Channel positions : Front: L C R, Side: L R, LFE
Sampling rate : 48.0 kHz / 24.0 kHz
Frame rate : 23.438 FPS (1024 SPF)
Compression mode : Lossy
Delay relative to video : 43 ms
Stream size : 79.5 MiB (10%)
Language : English
Default : Yes
Forced : No

[collapse]

3 Responses to Download – Deadpool (2016) 720p 10bit x265 BluRay + Unreleased Extended Cut!

  1. Bala says:

    Thanks bro

  2. TC says:

    Yeah cool, thanks a million!

  3. Elysium says:

    Thanx mate awesome ext cut great work mate

    been a way as fasting so tired hence not been on to comment much

Leave a Reply

Your email address will not be published. Required fields are marked *