Download – Dances with Wolves (1990) Directors Cut 720p 10bit HEVC x265 BluRay

720p 1.4GB 10bit x265 HEVC Direct Link

Sample Download

Encoder: Gangsternerd

Runtime: 3 Hours 56 Minutes

Media Info

Video
ID : 1
Format : HEVC
Format/Info : High Efficiency Video Coding
Format profile : Main [email protected]@Main
Codec ID : V_MPEGH/ISO/HEVC
Duration : 3 h 56 min
Bit rate : 745 kb/s
Width : 1 280 pixels
Height : 528 pixels
Display aspect ratio : 2.40:1
Frame rate mode : Constant
Frame rate : 23.976 FPS
Color space : YUV
Chroma subsampling : 4:2:0
Bit depth : 10 bits
Bits/(Pixel*Frame) : 0.046
Stream size : 1.23 GiB (86%)

Audio
ID : 2
Format : AAC
Format/Info : Advanced Audio Codec
Format profile : HE-AAC / LC
Codec ID : A_AAC
Duration : 3 h 56 min
Bit rate : 120 kb/s
Channel(s) : 6 channels
Channel positions : Front: L C R, Side: L R, LFE
Sampling rate : 48.0 kHz / 24.0 kHz
Frame rate : 23.438 FPS (1024 SPF)
Compression mode : Lossy
Delay relative to video : 43 ms
Stream size : 203 MiB (14%)
Language : English
Default : Yes
Forced : No

[collapse]

2 Responses to Download – Dances with Wolves (1990) Directors Cut 720p 10bit HEVC x265 BluRay

  1. eyecheez says:

    Great movie shame not all americans treat natives like this 🙁

  2. RY says:

    thanks man…

Leave a Reply

Your email address will not be published. Required fields are marked *