Download – Daddy (2017) 720p 10bit HEVC x265 Web-DL

720p 791MB 10bit x265 HEVC Direct Link

Sample Download

Encoder: Gangsternerd

Media Info

Video
ID : 1
Format : HEVC
Format/Info : High Efficiency Video Coding
Format profile : Main [email protected]@Main
Codec ID : V_MPEGH/ISO/HEVC
Duration : 2 h 13 min
Bit rate : 705 kb/s
Width : 1 280 pixels
Height : 544 pixels
Display aspect ratio : 2.35:1
Frame rate mode : Constant
Frame rate : 23.976 (23976/1000) FPS
Color space : YUV
Chroma subsampling : 4:2:0
Bit depth : 10 bits
Bits/(Pixel*Frame) : 0.042
Stream size : 675 MiB (85%)

Audio
ID : 2
Format : AAC
Format/Info : Advanced Audio Codec
Format profile : HE-AAC / LC
Codec ID : A_AAC
Duration : 2 h 13 min
Bit rate : 120 kb/s
Channel(s) : 6 channels
Channel positions : Front: L C R, Side: L R, LFE
Sampling rate : 48.0 kHz / 24.0 kHz
Frame rate : 23.438 FPS (1024 SPF)
Compression mode : Lossy
Delay relative to video : 43 ms
Stream size : 115 MiB (15%)
Language : Hindi
Default : Yes
Forced : No

[collapse]

2 Responses to Download – Daddy (2017) 720p 10bit HEVC x265 Web-DL

  1. Nisarg Toliya says:

    Please upload these movies in 720p Bluray/Brrip/Web-HD/Web-Dl/Hdrip

    Days of Tafree (2016)
    http://www.imdb.com/title/tt5909308/

    Game (2011)
    http://www.imdb.com/title/tt1772872/

    Naam Shabana (2017)
    http://www.imdb.com/title/tt6170954/

    Sarkar 3 (2017)
    http://www.imdb.com/title/tt5742874/

    Half Girlfriend (2017)
    http://www.imdb.com/title/tt5474042/

    Mom (2017)
    http://www.imdb.com/title/tt5690142/

    Toilet-Ek Prem Katha (2017)
    http://www.imdb.com/title/tt5785170/

    Baadshao (2017)
    http://www.imdb.com/title/tt4906960/

    A Gentleman (2017)
    http://www.imdb.com/title/tt5613834/

    Thanks!!!!!!

Leave a Reply

Your email address will not be published. Required fields are marked *