Download – American Made (2017) HC Sub Filtered 720p 10bit HEVC x265 WebRip

720p 705MB 10bit x265 HEVC Direct Link

Sample Download

Encoder: Gangsternerd

Audio was out of sync, but now
only first 5 mins or so has a very very tiny sync issue,
you might not even notice. 😛 Rest movie is perfectly in sync
the Source file Audio and Video was just satisfactory…
and with that Happy Watching! 😀

Media Info

Video
ID : 1
Format : HEVC
Format/Info : High Efficiency Video Coding
Format profile : Main [email protected]@Main
Codec ID : V_MPEGH/ISO/HEVC
Duration : 1 h 53 min
Bit rate : 745 kb/s
Width : 1 280 pixels
Height : 688 pixels
Display aspect ratio : 1.85:1
Frame rate mode : Constant
Frame rate : 30.000 FPS
Color space : YUV
Chroma subsampling : 4:2:0
Bit depth : 10 bits
Bits/(Pixel*Frame) : 0.028
Stream size : 606 MiB (86%)

Audio
ID : 2
Format : AAC
Format/Info : Advanced Audio Codec
Format profile : HE-AAC / LC
Codec ID : A_AAC
Duration : 1 h 53 min
Bit rate : 120 kb/s
Channel(s) : 6 channels
Channel positions : Front: L C R, Side: L R, LFE
Sampling rate : 48.0 kHz / 24.0 kHz
Frame rate : 23.438 FPS (1024 SPF)
Compression mode : Lossy
Delay relative to video : 43 ms
Stream size : 97.5 MiB (14%)
Language : English
Default : Yes
Forced : No

[collapse]

Leave a Reply

Your email address will not be published. Required fields are marked *