Download – John Wick: Chapter 2 (2017) 720p 10bit x265 Web-DL *PROPER*

Proper 720p 729MB 10bit x265 HEVC Direct Link

Sample Download

Encoder: Gangsternerd

This is a PROPER-UNEDITED Encode Sorry about First one I didn’t know it was
Edited until I had already posted and from what i have gathered
there are a lot of encoders using that same Source!
If was only a minute or 2 i would have left it,
but 5 Mins is starting to be a lot of movie!
That’s way to much ass kicking to be missed!

Happy watching This Encode Turned out really nice! 🙂

Media Info

Format : Matroska Format version : Version 4 / Version 2 File size : 729 MiB Duration : 2 h 2 min Overall bit rate : 833 kb/s Movie name : John Wick: Chapter 2 (2017) 720p HEVC- Team x265mkv-Gangsternerd Encoded date : UTC 2017-05-23 16:18:43 Writing application : mkvmerge v12.0.0 (‘Trust / Lust’) 64bit Writing library : libebml v1.3.4 + libmatroska v1.4.5 Video ID : 1 Format : HEVC Format/Info : High Efficiency Video Coding Format profile : Main [email protected]@Main Codec ID : V_MPEGH/ISO/HEVC Duration : 2 h 2 min Bit rate : 735 kb/s Width : 1 280 pixels Height : 528 pixels Display aspect ratio : 2.40:1 Frame rate mode : Constant Frame rate : 23.976 (24000/1001) FPS Color space : YUV Chroma subsampling : 4:2:0 Bit depth : 10 bits Bits/(Pixel*Frame) : 0.045 Stream size : 643 MiB (88%) Writing library : x265 2.1+69-c97c64ab8b8e:[Windows][GCC 6.2.0][64 bit] 10bit Encoding settings : cpuid=1173503 / frame-threads=3 / numa-pools=8 / wpp / no-pmode / no-pme / no-psnr / no-ssim / log-level=2 / input-csp=1 / input-res=1280×528 / interlace=0 / total-frames=175995 / level-idc=51 / high-tier=1 / uhd-bd=0 / ref=3 / no-allow-non-conformance / no-repeat-headers / annexb / no-aud / no-hrd / info / hash=0 / no-temporal-layers / open-gop / min-keyint=23 / keyint=250 / bframes=4 / b-adapt=2 / b-pyramid / bframe-bias=0 / rc-lookahead=20 / lookahead-slices=0 / scenecut=40 / no-intra-refresh / ctu=64 / min-cu-size=8 / no-rect / no-amp / max-tu-size=32 / tu-inter-depth=1 / tu-intra-depth=1 / limit-tu=0 / rdoq-level=0 / signhide / no-tskip / nr-intra=0 / nr-inter=0 / no-constrained-intra / strong-intra-smoothing / max-merge=2 / limit-refs=3 / no-limit-modes / me=1 / subme=2 / merange=57 / temporal-mvp / weightp / no-weightb / no-analyze-src-pics / deblock=0:0 / sao / no-sao-non-deblock / rd=3 / no-early-skip / rskip / no-fast-intra / no-tskip-fast / no-cu-lossless / no-b-intra / rdpenalty=0 / psy-rd=2.00 / psy-rdoq=0.00 / no-rd-refine / analysis-mode=0 / no-lossless / cbqpoffs=0 / crqpoffs=0 / rc=abr / bitrate=732 / qcomp=0.60 / qpstep=4 / stats-write=0 / stats-read=0 / ipratio=1.40 / pbratio=1.30 / aq-mode=1 / aq-strength=1.00 / cutree / zone-count=0 / no-strict-cbr / qg-size=32 / no-rc-grain / qpmax=69 / qpmin=0 / sar=0 / overscan=0 / videoformat=5 / range=0 / colorprim=2 / transfer=2 / colormatrix=2 / chromaloc=0 / display-window=0 / max-cll=0,0 / min-luma=0 / max-luma=1023 / log2-max-poc-lsb=8 / vui-timing-info / vui-hrd-info / slices=1 / opt-qp-pps / opt-ref-list-length-pps / no-multi-pass-opt-rps / scenecut-bias=0.05 Language : English Default : Yes Forced : No Audio ID : 2 Format : AAC Format/Info : Advanced Audio Codec Format profile : HE-AAC / LC Codec ID : A_AAC Duration : 2 h 2 min Bit rate : 96.0 kb/s Channel(s) : 6 channels Channel positions : Front: L C R, Side: L R, LFE Sampling rate : 48.0 kHz / 24.0 kHz Frame rate : 23.438 FPS (1024 spf) Compression mode : Lossy Delay relative to video : 43 ms Stream size : 84.0 MiB (12%) Language : English Default : Yes Forced : No Text ID : 3 Format : UTF-8 Codec ID : S_TEXT/UTF8 Codec ID/Info : UTF-8 Plain Text Duration : 1 h 49 min Bit rate : 22 b/s Count of elements : 671 Stream size : 17.7 KiB (0%) Language : English Default : No Forced : No Menu 00:00:00.000 : en:1 00:14:26.000 : en:2 00:26:35.000 : en:3 00:38:01.000 : en:4 00:48:07.000 : en:5 01:01:43.000 : en:6 01:13:19.000 : en:7 01:25:12.000 : en:8 01:34:59.000 : en:9 01:43:49.000 : en:10 01:55:19.000 : en:11

[collapse]

 

28 Responses to Download – John Wick: Chapter 2 (2017) 720p 10bit x265 Web-DL *PROPER*

  1. Dave25 says:

    Thank you so much.Sample looks awesome.Good job…

  2. Knight says:

    Your encodes are one of the best ones found on the net.Huge fan….Thanks a lot for your awesome service.

  3. moh says:

    Thank you ..this Bitrate is reasonable ..can you stick with it for your future encodes

  4. Pradert says:

    Plzz add subtitles on next uploads…..

  5. Knight says:

    Thnks a lot…for the new print….this one is better….Always knew I could rely on you….A million thnks again.

  6. Sedik says:

    you’re the best, bro. thank you very much.

  7. moh says:

    This media info thing is awesome 😀

  8. nihar says:

    client error 117B

Leave a Reply

Your email address will not be published. Required fields are marked *